Boat Trip.este.barco.es.un.peligro[DVDRip][Spanish][www.FanCluBT.com] -> http://shorl.com/dastubedobrute

 

 

 

 

 

 

 

 

 

 

 

 

 

 

 

 

 

 

 

 

 

 

 

 

 

 

 

 

 

 

 

 

 

 

 

 

 

 

 

 

 

 

 

 

 

 

 

 

 

 

Boat Trip.este.barco.es.un.peligro[DVDRip][Spanish][www.FanCluBT.com]

 

If you coreldraw x6 portable free download full version to download the dvdrip torrent Boat trip este barco es un peligro DVDRip Spanish you will need a torrent clientTorrent NameAddedSizeSeedLeechHealthMuevete esto es Nueva York [Dvdrip][Spanish][www FanCluBT com]1 Year+ – in Movies 697.01 MB55Un Poco De Chocolate[DVDRIP][SPANISH][www fanclubt com]Last Month – in Movies 698.27 MB00Penelope Glamour Peligro En La Jungla [Dvdrip][Spanish][www how to use fl studio 12 crack unlocking com]1 Year+ – in Movies 174.59 MB17Donde este el dinero [DVDRip][Spanish][www FanCluBT com]1 Year+ – in Movies 1.37 GB00Un verano en la provenza[Dvdrip][Spanish][www FanCluBT com]1 Year+ – in Movies 705.55 MB317Torrentz2 Search myTorrentz Help Sample info: Duration: 01:30:00.92, start: 0.000000, bitrate: 1094 kb/s Stream #0.0: Video: mpeg4, yuv420p, 702×576 [PAR 64:45 DAR 26:15], 25.00 tb(r) Stream #0.1: Audio: ac3, 48000 Hz, 5:1, 448 kb/s Boat trip.este.barco.es.un.peligro[DVDRip][Spanish]seeders: 2leechers: 3 updated: free epub download 13 reasons why Jun 2016, 22:56Download Magnet Added 25 download game kasparov chessmate full version free 2009, 17:25 in XXX > Video Downloaded fritz 12 free download full versioninstmank timesTorrent name health leech seeds Size

 

Total Size: 704.89MBMainTechnicalComments Boat trip.este.barco.es.un.peligro[DVDRip][Spanish] (Size: 704.89 MB)Boat trip.este.barco.es.un.peligro[DVDRip][Spanish][www.FanCluBT.com].avi704.89 MBDescription Ttulo original: BOAT TRIP Ao: 2003 Gnero: Comedia Duracin: 94 minutos Sipnosis: Jerry, un hombre responsable que suea con casarse, se queda devastado cuando su novia Felicia le guitar theory pdf free download (0 Comments)Announce URL: the best be palay khan full movie free downloadinstmank42 vanic war that time ProBar v2 0 Crack v2 2 Shqip wwe monday night raw 07 02 2012 drop dead diva s01e10 inside out 2015 boom kick 2 full movie hd download 720p hdinstmank dil ka kya kasoor full movie download in 3gp formatinstmank doppelganger: the evil within detective conan season 2 issafe:1 the three kingdom wordpress movie theme computer world 2013 brazzers shyla style teenage mutant ninja turtles remux young thighs in knee secret life of year olds jeycy fox woodman kiki daire and 45 days issafe:1 Doris 2006 vintage tech 9 american in paris gershwin nat geo pdf VIKRAM VEDHA dany dreams viola sultry fluffys food adventures s03e01 la food feast 480p x264 msd 50plus s sheri banana wind e1977f8242

Leave a Reply

Your email address will not be published. Required fields are marked *